Thu. Apr 2nd, 2020

Purano Tech

Tech, Gaming, Movies, Review

Baaghi 3 (2020) 720p Hindi Full Movie UNTOUCHED PreDVD Leaked on 1337x

3 new download links of Baaghi 3 have been leaked on 1337x movie piracy site. The links are Baaghi 3 (2020) Hindi 720p HDCAM [NO LOGO] MP3 Audio x264 – Shadow, Baaghi 3 (2020) 720p Hindi UNTOUCHED HDCAM x264 1GB AAC, and Baaghi 3.2020.720p Hindi UNTOUCHED PreDVD x264 .AAC.LLG. The downloads are provided through torrent and magnet links. Also apart from this there is a provision to watch Baaghi 3 online absolutely free and download from other servers anonymously, means without any registration. As of now there have been more than 30000 downloads within 15 minutes of the download gone live.

Tiger Shroff did a lot of hard work in making a dream come true and prove himself the best at the moment in Bollywood when it comes to stunts. Baaghi 3, the third installment of Baagi Franchise crafted for Tiger Shroff which was obvious from the trailer when it was released filled with action that fits him well.

The movie surrounds around two brothers who at a younger age they loose their father who at his last breath takes a promise from Ronnie to take care of his elder one always. Then comes a time when for saving his brother how Ronnie faces a magnificent scale of enemies forms the rest part of the movie which goes beyond border.

When talking about script its not that wow, but yes somewhere it shows how terrorists spread the terror. How the common people are being trapped and used them as suicide killers. But still its not an extraordinary script.

When talk about performance, Junior Tiger is best when it comes to action and not very good when showing emotions. He had extremely put efforts for this movie. Kudos to his dedication. Ritesh did justification to his part of performance. Shraddha Kapoor, where more than acting nowadays glamour is required she has done her part.

Action sequence designed only for Tiger. Ya there are sequence where its hard to believe how a common man can do such stunts but when movies like RAMBO, AVENGERS, BAHUBALI is accepted we can accept this too. And at the end may be the director gave indirectly the reason for the extraordinary stunts.” If we fight for our family we should not the quantum of enemies we will fight for them.”

Sajid Nadiadwala had enormously poured his money in this project. Blasts, lakhs of people for tiger to hit and break their bones. Magnificent location and so on.

Coming back to your download inquiry, take a look at below information.

Baaghi 3.2020.720p Hindi UNTOUCHED PreDVD x264 .AAC.LLG

Baaghi 3 (2020) 720p Hindi UNTOUCHED HDCAM x264 1GB AAC

Baaghi 3 (2020) Hindi 720p HDCAM [NO LOGO] MP3 Audio x264 – Shadow

Baaghi 3 Video Audio
Format : MPEG-4
Format profile : Base Media
Codec ID : isom (isom/iso2/avc1/mp41)
File size : 1 007 MiB
Duration : 2 h 15 min
Overall bit rate mode : Variable
Overall bit rate : 1 040 kb/s
Writing application : Lavf57.83.100
ID : 1
Format : AVC
Format/Info : Advanced Video Codec
Format profile : [email protected]
Format settings : CABAC / 1 Ref Frames
Format settings, CABAC : Yes
Format settings, Reference frames : 1 frame
Codec ID : avc1
Codec ID/Info : Advanced Video Coding
Duration : 2 h 15 min
Bit rate mode : Variable
Bit rate : 938 kb/s
Maximum bit rate : 2 700 kb/s
Width : 1 280 pixels
Height : 544 pixels
Display aspect ratio : 2.35:1
Frame rate mode : Constant
Frame rate : 29.970 (29970/1000) FPS
Original frame rate : 29.970 (30000/1001) FPS
Color space : YUV
Chroma subsampling : 4:2:0
Bit depth : 8 bits
Scan type : Progressive
Bits/(Pixel*Frame) : 0.045
Stream size : 907 MiB (90%)
Language : English
Codec configuration box : avcC
ID : 2
Format : AAC LC
Codec ID : mp4a-40-2
Duration : 2 h 15 min
Bit rate mode : Constant
Bit rate : 96.0 kb/s
Channel(s) : 2 channels
Channel layout : L R
Sampling rate : 48.0 kHz
Frame rate : 46.875 FPS (1024 SPF)
Compression mode : Lossy
Stream size : 92.8 MiB (9%)
Language : English
Default : Yes
Alternate group : 1